Filecrypt zeigt vereinzelt Files als "n/a". Die Downloads sind trotzdem komplett.

DNS SERVER AENDERNum der staatlichen Zensur zu umgehen. Sollten wir von eurem Provider geseprrt werden, nutzt den TOR BROWSER oder ändert euren DNS SERVER.

Filmwünsche können bei uns im Forum abgegeben werden

Wir Speichern Nicht




 
 
 
Top Releases
Paterson.2016.German.AC3.108...
Lion.Der.lange.Weg.nach.Haus...
Luis.und.die.Aliens.German.D...
Luis.und.die.Aliens.German.D...
Der.Butler.2013.German.AC3.D...
Ploetzlich.Santa.2016.German...
The.Art.of.the.Steal.Der.Kun...
Luis.und.die.Aliens.2018.DUA...
Prinz.Charming.2018.COMPLETE...
Santa.und.Co.Wer.rettet.Weih...

Cinedubs
Christopher.Robin.2018.GERMA...
Christopher.Robin.2018.GERMA...
Die.unglaubliche.Reise.des.F...
Die.unglaubliche.Reise.des.F...
BlacKkKlansman.2018.GERMAN.D...
BlacKkKlansman.2018.GERMAN.D...
Mile.22.2018.German.AC3MD.DL...
Mile.22.2018.German.AC3MD.DL...
Die.Unglaublichen.2.German.D...
Die.Unglaublichen.2.German.D...

Neuerscheinungen 2017-18
Jefe.Der.Chef.2018.German.72...
Jefe.Der.Chef.2018.German.10...
Been.So.Long.2018.German.DL....
Been.So.Long.2018.German.DL....
Killer.Expendables.2010.Germ...
LEGO.DC.Super.Heroes.Aquaman...
LEGO.DC.Super.Heroes.Aquaman...
Prom.Night.Die.Nacht.des.Sch...
Tsunambee.The.Wrath.Cometh.2...
Illang.The.Wolf.Brigade.2018...

XXX
FTVGirls.18.10.16.Sophia.Pos...
Fitting-Room.18.10.15.Ariel....
FAKings.18.10.08.Merce.SPANI...
FinishHim.18.10.06.Ivy.Secre...
Family.18.10.17.Gia.Derza.An...
FakehubOriginals.18.10.13.Al...
EvilAngel.18.10.12.Lisa.Ann....
EvilAngel.Sloppy.Anal.Sluts....
FAKings.18.10.12.Inna.Teen.S...
FakeTaxi.18.10.14.Lindsey.Cr...
ATKGirlfriends.18.10.17.Mega...
EvilAngel.Choked.And.Soaked....
FakeHostel.18.10.13.Katy.Ros...
FakeDrivingSchool.18.10.15.R...
EvilAngel.Sloppy.Anal.Sluts....
DogHouseDigital.18.10.18.Tin...
FakeTaxi.18.10.17.Tory.Candi...
EroticDesire.18.10.13.Mikki....
FamilyLust.18.10.12.Ashlynn....
DogHouseDigital.18.10.14.Kat...

3D
Deep.Kleine.Helden.der.Tiefs...
Deep.3D.2017.MULTI.COMPLETE....
Detective.Dee.und.die.Legend...
Detective.Dee.und.die.Legend...
Skyscraper.3D.German.DL.AC3....
Ant-Man.and.the.Wasp.2018.3D...
Jurassic.World.Das.gefallene...
Jurassic.World.Das.gefallene...
Best.of.3D.vol.10.-.12.GERMA...
Die.Biene.Maja.2.Die.Honigsp...
Sharknado.6.The.Last.One.3D....
Solo.A.Star.Wars.Story.3D.20...
Solo.A.Star.Wars.Story.3D.20...
Die.Biene.Maja.2.Die.Honigsp...
Avengers.Infinity.War.3D.201...

Old_Stuff
Species.IV.Das.Erwachen.2007...
Species.IV.Das.Erwachen.2007...
Hotel.Transsilvanien.2012.Ge...
The.Dead.2010.German.DL.1080...
The.Dead.2.India.2013.German...
Britney.Spears.Live.The.Femm...
Buffy.The.Vampire.Slayer.199...
IMAX.Ride.Around.The.World.2...
Schimanski.-.Duisburg.Ruhror...
Akte.X.S02.German.DTS.DL.108...
How.I.Met.Your.Mother.S02.Ge...
Akte.X.S01.German.DTS.DL.108...
Den.Himmel.gibts.echt.DL.108...
Vikings.S02.German.DL.1080p....
Be.Kind.Rewind.Abgedreht.200...

Filme
Ab.durch.die.Hecke.2006.Germ...
Killer.Expendables.2010.Germ...
Prom.Night.Die.Nacht.des.Sch...
Patient.Zero.2018.German.720...
Patient.Zero.2018.German.DL....
Mother.2017.German.AC3D.DL.2...
Surf.Nazis.Must.Die.1987.Ger...
Snitch.Ein.riskanter.Deal.20...
Die.letzte.Party.deines.Lebe...
Die.Wikinger.-.The.Vikings.1...
Collide.2016.German.AC3.DL.1...
Menschen.ohne.Seele.1950.Ger...
Triple.Trouble.1984.German.D...
Killer.by.Nature.2010.MULTi....
Criminal.Minds.S13.GERMAN.DU...
Das.Vermaechtnis.der.Tempelr...
Ein.Fleck.in.der.Sonne.1961....
Der.toedliche.Schwarm.aka.Th...
Beyond.the.Sea.-.Musik.war.s...
Das.Vermaechtnis.des.geheime...
The.Magicians.S03.COMPLETE.G...
The.Originals.S05.GERMAN.720...
Mein.Partner.mit.der.kalten....
Anatomie.einer.Entfuehrung.2...

 
 
LEGO.DC.Super.Heroes.Aquaman.Die.Rache.von.Atlantis.2018.German.720p.BluRay.x264-ENCOUNTERS

Jahr: 2018
Genre: Animation, Komödie
Sprache: Deutsch AC3
Laufzeit: 1h 16mn
Bitrate: 2 576 Kbps
Format: MKV
Größe: 1.38 GiB
Release:

Beschreibung:

In Atlantis, dem sagenumwobenen Königreich unter der Meeresoberfläche, herrscht Aquaman, der neben seiner Rolle als König der Atlanter auch ein wichtiges Mitglied der Justice League ist. Mit seiner Frau Mera und seinem Halbbruder Orm an der Seite, scheint es nicht szu geben, was Aquaman stoppen kann. Das muss er ein weiteres Mal beweisen, als das Justice-League-Alarmsignal ertönt und er sich mit Batman, Superman, Wonder Woman und den anderen Helden zusammenschließt, weil eine außerirdische Bedrohung unseren Planeten in Angst und Schrecken versetzt.



Complete name                            : encounters-ledcsuheaqdiravoat_720p.mkv
Format                                   : Matroska
Format version                           : Version 4 / Version 2
File size                                : 1.38 GiB
Duration                                 : 1h 16mn
Overall bit rate                         : 2 576 Kbps
Encoded date                             : UTC 2018-10-27 17:49:21
Writing application                      : mkvmerge v19.0.0 ('Brave Captain') 64-bit
Writing library                          : libebml v1.3.5 + libmatroska v1.4.8
DURATION                                 : 00:00:03.170000000
NUMBER_OF_FRAMES                         : 1
NUMBER_OF_BYTES                          : 35
_STATISTICS_WRITING_APP                  : mkvmerge v19.0.0 ('Brave Captain') 64-bit
_STATISTICS_WRITING_DATE_UTC             : 2018-10-27 17:49:21
_STATISTICS_TAGS                         : BPS DURATION NUMBER_OF_FRAMES NUMBER_OF_BYTES

Video
ID                                       : 1
Format                                   : AVC
Format/Info                              : Advanced Video Codec
Format profile                           : [email protected]
Format settings, CABAC                   : Yes
Format settings, ReFrames                : 5 frames
Codec ID                                 : V_MPEG4/ISO/AVC
Duration                                 : 1h 16mn
Bit rate                                 : 2 077 Kbps
Width                                    : 1 280 pixels
Height                                   : 720 pixels
Display aspect ratio                     : 16:9
Frame rate mode                          : Constant
Frame rate                               : 23.976 fps
Color space                              : YUV
Chroma subsampling                       : 4:2:0
Bit depth                                : 8 bits
Scan type                                : Progressive
Bits/(Pixel*Frame)                       : 0.094
Stream size                              : 1.11 GiB (81%)
Writing library                          : x264 core 157 r2935 545de2f
Encoding settings                        : cabac=1 / ref=5 / deblock=1:-1:-1 / analyse=0x3:0x133 / me=umh / subme=7 / psy=1 / psy_rd=1.00:0.15 / mixed_ref=1 / me_range=16 / chroma_me=1 / trellis=1 / 8x8dct=1 / cqm=0 / deadzone=21,11 / fast_pskip=0 / chroma_qp_offset=-3 / threads=16 / lookahead_threads=2 / sliced_threads=0 / nr=0 / decimate=1 / interlaced=0 / bluray_compat=0 / constrained_intra=0 / bframes=3 / b_pyramid=2 / b_adapt=1 / b_bias=0 / direct=1 / weightb=1 / open_gop=0 / weightp=2 / keyint=250 / keyint_min=23 / scenecut=40 / intra_refresh=0 / rc_lookahead=40 / rc=crf / mbtree=1 / crf=20.0 / qcomp=0.60 / qpmin=0 / qpmax=69 / qpstep=4 / ip_ratio=1.40 / aq=1:1.00
Default                                  : Yes
Forced                                   : No

Audio
ID                                       : 2
Format                                   : AC-3
Format/Info                              : Audio Coding 3
Mode extension                           : CM (complete main)
Format settings, Endianness              : Big
Codec ID                                 : A_AC3
Duration                                 : 1h 16mn
Bit rate mode                            : Constant
Bit rate                                 : 448 Kbps
Channel(s)                               : 6 channels
Channel positions                        : Front: L C R, Side: L R, LFE
Sampling rate                            : 48.0 KHz
Bit depth                                : 16 bits
Compression mode                         : Lossy
Stream size                              : 246 MiB (17%)
Language                                 : German
Default                                  : Yes
Forced                                   : No

Text
ID                                       : 3
Format                                   : UTF-8
Codec ID                                 : S_TEXT/UTF8
Codec ID/Info                            : UTF-8 Plain Text
Language                                 : German
Default                                  : Yes
Forced                                   : Yes


Download:
Share Online Share OnlineShare OnlineShare Online
 

Kommentare