Filecrypt zeigt vereinzelt Files als "n/a". Die Downloads sind trotzdem komplett.

DNS SERVER AENDERNum der staatlichen Zensur zu umgehen. Sollten wir von eurem Provider geseprrt werden, nutzt den TOR BROWSER oder ändert euren DNS SERVER.

Filmwünsche können bei uns im Forum abgegeben werden

Wir Speichern Nicht




 
 
 
Top Releases
Meg.German.DL.AC3.Dubbed.720...
Meg.German.DL.AC3.Dubbed.108...
Film.Stars.Dont.Die.in.Liver...
Film.Stars.Dont.Die.in.Liver...
In.den.Gaengen.2018.German.1...
Die.Unglaublichen.2.German.D...
Prinz.Charming.2018.German.A...
Die.Unglaublichen.2.German.D...
Die.Unglaublichen.2.German.D...
Unknown.Soldier.Kampf.ums.Va...

Cinedubs
Mission.Impossible.Fallout.2...
Mission.Impossible.Fallout.2...
BlacKkKlansman.2018.German.A...
BlacKkKlansman.2018.German.A...
Mandy.2018.German.AC3MD.DL.7...
Mandy.2018.German.AC3MD.DL.1...
The.Guilty.2018.German.AC3MD...
The.Guilty.2018.German.AC3MD...
Der.Affront.2017.GERMAN.AC3....
Der.Affront.2017.GERMAN.AC3....

Neuerscheinungen 2017-18
Oceans.8.German.DL.1080p.Blu...
Oceans.8.German.DL.720p.BluR...
Papst.Franziskus.Ein.Mann.se...
Herrliche.Zeiten.German.720p...
Herrliche.Zeiten.German.1080...
Zeugin.der.Anklage.Witness.f...
Verborgenes.Indien.Land.des....
Ein.Weihnachtsspass.auf.vier...
Die.Fuersten.der.Dunkelheit....
Padre.2018.German.AC3D.5.1.D...

XXX
SneakySex.18.10.13.Kira.Noir...
SinsLife.18.10.14.Aubrey.Bla...
SpyFam.18.10.15.Asuna.Fox.XX...
SweetSinner.18.10.13.Jade.Ni...
TeensLoveHugeCocks.18.10.17....
WildOnCam.18.10.16.Draven.St...
TeenCreeper.E33.Lily.Adams.X...
SpermSwap.18.10.15.Nicoletta...
RealGirlsPlay.14.09.20.Elekt...
RodneyMoore.18.10.12.Izzy.Ta...
VIPissy.18.10.15.Nicol.Love....
RodneyMoore.18.10.10.Siri.Bo...
Private.18.10.16.Gina.Gerson...
SinfulXXX.18.10.11.Sienna.Da...
SheWillCheat.18.10.11.Holly....
RealGirlsPlay.14.08.24.Kayle...
TrenchCoatX.18.10.12.Alina.L...
Tushy.18.10.13.Emily.Willis....
SapphicErotica.18.10.18.Mia....
RealWifeStories.18.10.18.Ric...

3D
Die.Unglaublichen.2.3D.2018....
Die.Unglaublichen.2.2018.3D....
Die.Unglaublichen.2.2018.3D....
Sharknado.6.The.Last.One.3D....
Deep.Kleine.Helden.der.Tiefs...
Deep.3D.2017.MULTI.COMPLETE....
Detective.Dee.und.die.Legend...
Detective.Dee.und.die.Legend...
Skyscraper.3D.German.DL.AC3....
Ant-Man.and.the.Wasp.2018.3D...
Jurassic.World.Das.gefallene...
Jurassic.World.Das.gefallene...
Best.of.3D.vol.10.-.12.GERMA...
Die.Biene.Maja.2.Die.Honigsp...
Sharknado.6.The.Last.One.3D....

Old_Stuff
Species.IV.Das.Erwachen.2007...
Species.IV.Das.Erwachen.2007...
Hotel.Transsilvanien.2012.Ge...
The.Dead.2010.German.DL.1080...
The.Dead.2.India.2013.German...
Britney.Spears.Live.The.Femm...
Buffy.The.Vampire.Slayer.199...
IMAX.Ride.Around.The.World.2...
Schimanski.-.Duisburg.Ruhror...
Akte.X.S02.German.DTS.DL.108...
How.I.Met.Your.Mother.S02.Ge...
Akte.X.S01.German.DTS.DL.108...
Den.Himmel.gibts.echt.DL.108...
Vikings.S02.German.DL.1080p....
Be.Kind.Rewind.Abgedreht.200...

Filme
Gate.Die.Unterirdischen.GERM...
Gate.Die.Unterirdischen.GERM...
Quatsch.und.die.NasenbaerBan...
Rufmord.-.Jenseits.der.Moral...
Pfad.des.Kriegers.2018.Germa...
The.Other.Woman.German.DL.10...
Twisted.-.Der.erste.Verdacht...
Black.Lightning.S02.GERMAN.D...
Black.Lightning.S02.GERMAN.D...
The.Walking.Dead.S09.GERMAN....
The.Walking.Dead.S09.GERMAN....
Legends.of.Tomorrow.S03.Germ...
Fight.Valley.2016.German.DL....
Frantz.2016.German.1080p.Blu...
Duell.1971.Kinosynchro.Germa...
Alle.Herrlichkeit.auf.Erden....
Ash.vs.Evil.Dead.S02D01+2.CO...
Die.Mumie.1999.UHD2BD.1080p....
Gangstas.4.Life.2018.German....
Football.Leaks.Von.Gier.Lueg...
Legendary.Weapons.of.China.1...
Unknown.Soldier.Kampf.ums.Va...
Ein.Weihnachtsspass.auf.vier...
Die.Fuersten.der.Dunkelheit....

 
 
Mission.Impossible.Fallout.2018.IMAX.German.AC3LD.DL.720p.WEB-DL.h264-PS

Jahr: 2018
Genre: Action, Spionage
Sprache: Deutsch AC3 | Englisch AC3
Laufzeit: 2h 27mn
Bitrate: 4 657 Kbps
Format: MKV
Größe: 4.80 GiB
Release:

Beschreibung:
Die Geheimorganisation Impossible Mission Force (IMF) ist nach ihrer vorübergehenden Schließung wieder aktiv. IMF-Chef Alan Hunley (Alec Baldwin) schickt seine Agenten Ethan Hunt (Tom Cruise), Benji Dunn (Simon Pegg) und Luther Stickell (Ving Rhames) auf eine heikle Mission, um hochgefährliches, waffenfähiges Plutonium sicherzustellen, das auf dem Schwarzmarkt angeboten wird. Eine aus Weltuntergangsfanatikern bestehende Terroristengruppe plant, es sich unter den Nagel zu reißen und daraus tragbare Atombomben zu bauen. Ihr Ziel: die Welt in Chaos zu stürzen. Hunts Mission schlägt jedoch fatal fehl, weil er das Leben seiner Partner über den Erfolg seines Auftrags stellt. Das bringt das IMF unter Druck, sodass die CIA-Chefin Erica Sloane (Angela Bassett) die Geduld verliert und ihren berüchtigten Agenten August Walker (Henry Cavill) zur Verstärkung schickt…

Notes: Enthält einige Szenen im IMAX-Format



Format                                   : Matroska
Format version                           : Version 2
File size                                : 4.80 GiB
Duration                                 : 2h 27mn
Overall bit rate                         : 4 657 Kbps
Encoded date                             : UTC 2018-11-06 15:31:30
Writing application                      : mkvmerge v3.4.0 ('Rapunzel') gebaut am May 15 2010 09:38:20
Writing library                          : libebml v0.8.0 + libmatroska v0.9.0

Video
ID                                       : 1
Format                                   : AVC
Format/Info                              : Advanced Video Codec
Format profile                           : [email protected]
Format settings, CABAC                   : No
Format settings, ReFrames                : 2 frames
Codec ID                                 : V_MPEG4/ISO/AVC
Duration                                 : 2h 27mn
Bit rate                                 : 3 956 Kbps
Width                                    : 1 280 pixels
Height                                   : 674 pixels
Display aspect ratio                     : 1.899
Frame rate mode                          : Constant
Frame rate                               : 23.976 fps
Color space                              : YUV
Chroma subsampling                       : 4:2:0
Bit depth                                : 8 bits
Scan type                                : Progressive
Bits/(Pixel*Frame)                       : 0.191
Stream size                              : 4.08 GiB (85%)
Language                                 : English
Default                                  : No
Forced                                   : No
Color primaries                          : BT.709
Transfer characteristics                 : BT.709
Matrix coefficients                      : BT.709

Audio #1
ID                                       : 2
Format                                   : AC-3
Format/Info                              : Audio Coding 3
Mode extension                           : CM (complete main)
Format settings, Endianness              : Big
Codec ID                                 : A_AC3
Duration                                 : 2h 27mn
Bit rate mode                            : Constant
Bit rate                                 : 224 Kbps
Channel(s)                               : 2 channels
Channel positions                        : Front: L R
Sampling rate                            : 48.0 KHz
Bit depth                                : 16 bits
Compression mode                         : Lossy
Delay relative to video                  : 2s 241ms
Stream size                              : 237 MiB (5%)
Language                                 : German
Default                                  : Yes
Forced                                   : Yes

Audio #2
ID                                       : 3
Format                                   : AC-3
Format/Info                              : Audio Coding 3
Mode extension                           : CM (complete main)
Format settings, Endianness              : Big
Codec ID                                 : A_AC3
Duration                                 : 2h 27mn
Bit rate mode                            : Constant
Bit rate                                 : 384 Kbps
Channel(s)                               : 6 channels
Channel positions                        : Front: L C R, Side: L R, LFE
Sampling rate                            : 48.0 KHz
Bit depth                                : 16 bits
Compression mode                         : Lossy
Delay relative to video                  : -43ms
Stream size                              : 406 MiB (8%)
Language                                 : English
Default                                  : No
Forced                                   : No

Text
ID                                       : 4
Format                                   : UTF-8
Codec ID                                 : S_TEXT/UTF8
Codec ID/Info                            : UTF-8 Plain Text
Language                                 : German
Default                                  : Yes
Forced                                   : Yes


Download:
Share Online Share OnlineShare OnlineShare Online
 

Kommentare