Filecrypt zeigt vereinzelt Files als "n/a". Die Downloads sind trotzdem komplett.

DNS SERVER AENDERNum der staatlichen Zensur zu umgehen. Sollten wir von eurem Provider geseprrt werden, nutzt den TOR BROWSER oder ändert euren DNS SERVER.

Filmwünsche können bei uns im Forum abgegeben werden

Wir Speichern Nicht




 
 
 
Top Releases
Logan.Noir.Edition.2017.MULT...
Hotel.Artemis.2018.German.AC...
Ant-Man.2015.German.AC3.DL.1...
In.den.Gaengen.2018.German.A...
Oceans.8.2018.MULTi.COMPLETE...
Outlaw.King.2018.German.DL.1...
Outlaw.King.2018.German.DL.7...
Ploetzlich.Papa.2016.German....
Gun.City.2018.German.AC3.108...
Ant.Man.and.the.Wasp.2018.Ge...

Cinedubs
Predator.Upgrade.German.DL.A...
Predator.Upgrade.German.DL.A...
10×10.2018.German.AC3D.DL.1...
10×10.2018.German.AC3D.DL.7...
Sicario.2.German.DL.AC3.Dubb...
Sicario.2.German.DL.AC3.Dubb...
Hotel.Artemis.German.DL.AC3....
Hotel.Artemis.German.DL.AC3....
Mission.Impossible.Fallout.2...
Mission.Impossible.Fallout.2...

Neuerscheinungen 2017-18
Cut.Shoot.Kill.2017.German.D...
8.Millionen.Wege.zu.sterben....
Mercy.Christmas.Bitte.zu.Tis...
Terminal.Rache.war.nie.schoe...
In.Darkness.2018.German.AC3D...
Die.Fuersten.der.Dunkelheit....
Rambo.II.Der.Auftrag.Rambo.F...
Rambo.First.Blood.1982.REMAS...
The.Keeping.Hours.2017.Germa...
Appgefahren.Alles.ist.moegli...

XXX
BoundGangBangs.18.10.31.Chlo...
BrazzersExxtra.18.10.30.Diam...
BrazzersExxtra.18.10.31.Bonn...
ATKGirlfriends.18.10.29.Chlo...
BigTitVenera.18.07.26.Venera...
BabyGotBoobs.18.10.29.Tia.Cy...
BangBus.18.10.31.Penelope.Wh...
BreakingAsses.18.10.28.Bibi....
BritneyAmber.18.10.30.Naught...
AllOver30.18.10.30.Mimi.Smit...
BigNaturals.18.10.30.Michele...
BlacksOnBlondes.18.10.30.Can...
Beauty-Angels.18.10.29.Eliza...
BigTitVenera.18.08.23.Lollip...
BarbaraBieberOfficial.18.10....
BarbaraBieberOfficial.18.09....
BurningAngel.18.10.30.Ariana...
BoldlyGirls.18.10.29.Susy.Ga...
BarbaraBieberOfficial.18.10....
BarbaraBieberOfficial.18.08....

3D
Ant.Man.and.the.Wasp.3D.2018...
Die.Unglaublichen.2.3D.2018....
Die.Unglaublichen.2.2018.3D....
Die.Unglaublichen.2.2018.3D....
Sharknado.6.The.Last.One.3D....
Deep.Kleine.Helden.der.Tiefs...
Deep.3D.2017.MULTI.COMPLETE....
Detective.Dee.und.die.Legend...
Detective.Dee.und.die.Legend...
Skyscraper.3D.German.DL.AC3....
Ant-Man.and.the.Wasp.2018.3D...
Jurassic.World.Das.gefallene...
Jurassic.World.Das.gefallene...
Best.of.3D.vol.10.-.12.GERMA...
Die.Biene.Maja.2.Die.Honigsp...

Old_Stuff
Detective.Dee.und.das.Geheim...
Detective.Dee.Und.Der.Fluch....
Ghost.Rider.Spirit.of.Vengea...
Species.IV.Das.Erwachen.2007...
Species.IV.Das.Erwachen.2007...
Hotel.Transsilvanien.2012.Ge...
The.Dead.2010.German.DL.1080...
The.Dead.2.India.2013.German...
Britney.Spears.Live.The.Femm...
Buffy.The.Vampire.Slayer.199...
IMAX.Ride.Around.The.World.2...
Schimanski.-.Duisburg.Ruhror...
Akte.X.S02.German.DTS.DL.108...
How.I.Met.Your.Mother.S02.Ge...
Akte.X.S01.German.DTS.DL.108...

Filme
Rambo.2.Der.Auftrag.1985.Rem...
Rambo.2.Der.Auftrag.1985.Rem...
Echoes.Stimmen.aus.der.Zwisc...
Gosford.Park.2001.German.DL....
Weiblich.ledig.jung.sucht.19...
Rambo.2.Der.Auftrag.1985.Rem...
The.Unsaid.Lautlose.Schreie....
The.Violators.1993.German.DL...
The.Viking.-.Der.letzte.Drac...
The.Viral.Factor.2012.German...
Matrix.Reloaded.USA.2003.US....
The.Veteran.2011.German.DL.1...
Eyyvah.eyvah.2010.German.108...
Natty.Ganns.Reise.ins.Abente...
Ein.Rabbi.im.Wilden.Westen.a...
League.of.Gods.2016.German.A...
Enemy.Mine.1985.German.AC3.D...
House.of.Good.and.Evil.2013....
La.Habanera.1937.German.1080...
Revenge.Eine.gefaehrliche.Af...
Nicht.ohne.Eltern.2017.Germa...
Rambo.3.1988.Remastered.Germ...
Rambo.3.1988.Remastered.Germ...
Rambo.First.Blood.1982.Remas...

 
 
Rambo.2.Der.Auftrag.1985.Remastered.German.720p.BluRay.x264-CONTRiBUTiON

Jahr: 1985
Genre: Action | Adventure | Thriller
Sprache: Deutsch DTS
Laufzeit: 1h 35mn
Bitrate: 8 161 Kbps
Format: MKV
Größe: 5.46 GiB
Release:

Beschreibung:

Der Vietnamkrieg ist vorbei. Der ehemalige Green Beret Rambo schmort in einem Gefängnis. Colonel Trautman holt ihn dort heraus, denn er braucht für eine hochgefährliche, geheime Mission seinen besten Mann. Rambo soll im vietnamesischen Dschungel nach amerikanischen Kriegsgefangenen suchen und sie befreien. Doch seine Überlebensfähigkeiten werden auf eine harte Probe gestellt: Weil er den Befehlen nicht gehorcht, stufen ihn die eigenen Leute als “entbehrlich” ein. Ab sofort ist Rambo auf sich allein gestellt. Nur mit einem Messer sowie mit Pfeil und Bogen bewaffnet, tritt er den mit modernsten Waffen ausgerüsteten Feinden entgegen.



Complete name                            : Rambo.2.Der.Auftrag.1985.Remastered.German.720p.BluRay.x264-CONTRiBUTiON.mkv
Format                                   : Matroska
Format version                           : Version 4 / Version 2
File size                                : 5.46 GiB
Duration                                 : 1h 35mn
Overall bit rate                         : 8 161 Kbps
Encoded date                             : UTC 2018-11-10 11:31:04
Writing application                      : mkvmerge v23.0.0 ('The Bride Said No') 64-bit
Writing library                          : libebml v1.3.6 + libmatroska v1.4.9
DURATION                                 : 01:35:49.664000000
NUMBER_OF_FRAMES                         : 539031
NUMBER_OF_BYTES                          : 1084530372
_STATISTICS_WRITING_APP                  : mkvmerge v23.0.0 ('The Bride Said No') 64-bit
_STATISTICS_WRITING_DATE_UTC             : 2018-11-10 11:31:04
_STATISTICS_TAGS                         : BPS DURATION NUMBER_OF_FRAMES NUMBER_OF_BYTES

Video
ID                                       : 1
Format                                   : AVC
Format/Info                              : Advanced Video Codec
Format profile                           : [email protected]
Format settings, CABAC                   : Yes
Format settings, ReFrames                : 12 frames
Codec ID                                 : V_MPEG4/ISO/AVC
Duration                                 : 1h 35mn
Bit rate                                 : 6 654 Kbps
Width                                    : 1 280 pixels
Height                                   : 544 pixels
Display aspect ratio                     : 2.35:1
Frame rate mode                          : Constant
Frame rate                               : 24.000 fps
Color space                              : YUV
Chroma subsampling                       : 4:2:0
Bit depth                                : 8 bits
Scan type                                : Progressive
Bits/(Pixel*Frame)                       : 0.398
Stream size                              : 4.34 GiB (80%)
Writing library                          : x264 core 157 r2932 303c484
Encoding settings                        : cabac=1 / ref=12 / deblock=1:-3:-3 / analyse=0x3:0x133 / me=umh / subme=10 / psy=1 / psy_rd=1.10:0.00 / mixed_ref=1 / me_range=24 / chroma_me=1 / trellis=2 / 8x8dct=1 / cqm=0 / deadzone=21,11 / fast_pskip=0 / chroma_qp_offset=-2 / threads=17 / lookahead_threads=2 / sliced_threads=0 / nr=0 / decimate=1 / interlaced=0 / bluray_compat=0 / constrained_intra=0 / bframes=8 / b_pyramid=2 / b_adapt=2 / b_bias=0 / direct=3 / weightb=1 / open_gop=0 / weightp=2 / keyint=240 / keyint_min=24 / scenecut=40 / intra_refresh=0 / rc_lookahead=60 / rc=2pass / mbtree=1 / bitrate=6654 / ratetol=1.0 / qcomp=0.60 / qpmin=0 / qpmax=69 / qpstep=4 / cplxblur=20.0 / qblur=0.5 / ip_ratio=1.30 / aq=3:0.75
Default                                  : Yes
Forced                                   : No
DURATION                                 : 01:35:48.167000000
NUMBER_OF_FRAMES                         : 137956
NUMBER_OF_BYTES                          : 4779411329
_STATISTICS_WRITING_APP                  : mkvmerge v23.0.0 ('The Bride Said No') 64-bit
_STATISTICS_WRITING_DATE_UTC             : 2018-11-10 11:31:04
_STATISTICS_TAGS                         : BPS DURATION NUMBER_OF_FRAMES NUMBER_OF_BYTES

Audio
ID                                       : 2
Format                                   : DTS
Format/Info                              : Digital Theater Systems
Mode                                     : 16
Format settings, Endianness              : Big
Codec ID                                 : A_DTS
Duration                                 : 1h 35mn
Bit rate mode                            : Constant
Bit rate                                 : 1 509 Kbps
Channel(s)                               : 6 channels
Channel positions                        : Front: L C R, Side: L R, LFE
Sampling rate                            : 48.0 KHz
Bit depth                                : 24 bits
Compression mode                         : Lossy
Stream size                              : 1.01 GiB (18%)
Language                                 : German
Default                                  : Yes
Forced                                   : No


Download:
Share Online Share OnlineShare OnlineShare Online
 

Kommentare